Haseena Parkar 2017 1080p WEB-HD x264 [Moviezworldz]

  • Category Movies
  • Type Bollywood
  • Language Hindi
  • Total size 1.5 GB
  • Uploaded By moviezworldz
  • Downloads 1193
  • Last checked 3 days ago
  • Date uploaded 1 week ago
  • Seeders 23
  • Leechers 5

Haseena Parkar

DramaCrime

Follows the equally notorious sister of a notorious gangster

Infohash : A457F2E445D08394F067128EAF48EE589E28828A





General
Format : Matroska
Format version : Version 4 / Version 2
File size : 1.49 GiB
Duration : 1 h 57 min
Overall bit rate : 1 815 kb/s

Video
ID : 1
Format : AVC
Format/Info : Advanced Video Codec
Format profile : [email protected]
Format settings : CABAC / 4 Ref Frames
Format settings, CABAC : Yes
Format settings, ReFrames : 4 frames
Codec ID : V_MPEG4/ISO/AVC
Duration : 1 h 57 min
Bit rate : 1 700 kb/s
Width : 1 920 pixels
Height : 816 pixels
Display aspect ratio : 2.35:1
Frame rate mode : Constant
Frame rate : 24.926 FPS
Color space : YUV
Chroma subsampling : 4:2:0
Bit depth : 8 bits
Scan type : Progressive
Bits/(Pixel*Frame) : 0.044
Stream size : 1.38 GiB (93%)
Writing library : x264 core 148 r2708 86b7198
Default : Yes
Forced : No

Audio
ID : 2
Format : AAC
Format/Info : Advanced Audio Codec
Format profile : LC
Codec ID : A_AAC-2
Duration : 1 h 57 min
Bit rate : 128 kb/s
Channel(s) : 2 channels
Channel positions : Front: L R
Sampling rate : 44.1 kHz
Frame rate : 43.066 FPS (1024 SPF)
Compression mode : Lossy
Stream size : 107 MiB (7%)
Language : Hindi
Default : Yes
Forced : No
















Files:

Haseena Parkar 2017 1080p WEB-HD x264
  • Haseena Parkar 2017 1080p WEB-HD x264.mkv (1.5 GB)

There are currently no comments. Feel free to leave one :)

Code:

  • http://ipv4.tracker.harry.lu/announce
  • http://ipv4.tracker.harry.lu:80/announce
  • http://open.kickasstracker.com/announce
  • http://open.kickasstracker.com:443/announce
  • udp://tracker.coppersurfer.tk:6969/announce
  • udp://tracker.coppersurfer.tk:80/announce
  • udp://tracker.leechers-paradise.org:6969/announce
  • udp://tracker.openbittorrent.com:80/announce
  • udp://tracker.zer0day.to:1337/announce
  • http://82.209.230.66/announce
  • http://163.172.180.68/announce
  • udp://eddie4.nl:6969/announce
  • udp://explodie.org:6969/announce
  • udp://9.rarbg.to:2720/announce
  • udp://tracker.coppersurfer.tk:6969